最近看过此主题的会员

查看: 602|回复: 33
打印 上一主题 下一主题

群星《雀巢咖啡精彩节拍:男人篇》整轨+CUE/百度网盘

[复制链接]

1

主题

12

帖子

81

积分

新人会员,请认真回复,若恶意回复,直接封号

Rank: 1

积分
81
跳转到指定楼层
1#
发表于 2019-2-26 14:19:43 | 只看该作者 |只看大图 回帖奖励 |倒序浏览 |阅读模式

注册会员,获得无损资源下载地址,享受高品质音乐。

您需要 登录 才可以下载或查看,没有帐号?注册

x




PERFORMER "群星"
TITLE "雀巢咖啡精彩节拍"
FILE "CDImage.wav" WAVE
  TRACK 01 AUDIO
    TITLE "01.睡到12点"
    PERFORMER "任賢齊"
    INDEX 01 00:00:00
  TRACK 02 AUDIO
    TITLE "02.掌心"
    PERFORMER "無印良品"
    INDEX 01 04:01:61
  TRACK 03 AUDIO
    TITLE "03.桔子香水"
    PERFORMER "任賢齊"
    INDEX 01 08:25:73
  TRACK 04 AUDIO
    TITLE "04.彩虹"
    PERFORMER "羽泉"
    INDEX 01 12:04:00
  TRACK 05 AUDIO
    TITLE "05.挪威的森林"
    PERFORMER "伍佰"
    INDEX 01 16:40:04
  TRACK 06 AUDIO
    TITLE "06.兄弟"
    PERFORMER "任賢齊"
    INDEX 01 23:11:03
  TRACK 07 AUDIO
    TITLE "07.小雪"
    PERFORMER "任賢齊"
    INDEX 01 28:06:06
  TRACK 08 AUDIO
    TITLE "08.海浪"
    PERFORMER "黃品源"
    INDEX 01 34:26:30
  TRACK 09 AUDIO
    TITLE "09.烫心"
    PERFORMER "羽泉"
    INDEX 01 39:18:34
  TRACK 10 AUDIO
    TITLE "10.白鸽"
    PERFORMER "伍佰"
    INDEX 01 44:02:14
  TRACK 11 AUDIO
    TITLE "11.单恋"
    PERFORMER "光良"
    INDEX 01 50:07:67
  TRACK 12 AUDIO
    TITLE "12.心似狂潮"
    PERFORMER "羽泉"
    INDEX 01 54:38:22



游客,如果您要查看本帖隐藏内容请回复




港台群星《乐作剧》双CD/1997/WAV/BD
许飞《父亲写的散文诗》2016/FLAC/BD
 成长值: 870

18

主题

258

帖子

1300

积分

VIP2

Rank: 5Rank: 5

积分
1300

社区QQ达人VIP勋章灌水勋章

2#
发表于 2019-2-26 15:27:43 | 只看该作者
以前没注意听过,下载听一下   感谢楼主

0

主题

141

帖子

759

积分

职业歌手

Rank: 3Rank: 3

积分
759
3#
发表于 2019-2-26 18:23:58 | 只看该作者
好多年了,一直在回忆啊

0

主题

36

帖子

83

积分

新人会员,请认真回复,若恶意回复,直接封号

Rank: 1

积分
83
4#
发表于 2019-2-26 20:35:54 | 只看该作者
想找有一张女声的CD找不到,这也就凑合吧

0

主题

23

帖子

41

积分

新人会员,请认真回复,若恶意回复,直接封号

Rank: 1

积分
41
5#
发表于 2019-2-26 21:44:29 | 只看该作者
这个节目什么年代啊
integral

3

主题

514

帖子

1003

积分

职业歌手

Rank: 3Rank: 3

积分
1003

社区QQ达人

6#
发表于 2019-2-26 23:30:45 | 只看该作者
我的天!这可是当年 小资青年 必备品

0

主题

150

帖子

563

积分

职业歌手

Rank: 3Rank: 3

积分
563

社区QQ达人

7#
发表于 2019-2-27 02:52:05 | 只看该作者
谢谢楼主分享好音乐!

0

主题

429

帖子

1140

积分

职业歌手

Rank: 3Rank: 3

积分
1140
8#
发表于 2019-2-27 08:24:12 | 只看该作者
吃饭好的音乐资源

0

主题

401

帖子

159

积分

乐坛新星

Rank: 2

积分
159

社区QQ达人

9#
发表于 2019-2-27 08:56:14 | 只看该作者
很多年前买雀巢咖啡送两张,一张男人篇,还有一张是女人篇。

1

主题

389

帖子

111

积分

新人会员,请认真回复,若恶意回复,直接封号

Rank: 1

积分
111
10#
发表于 2019-2-27 09:27:03 | 只看该作者
嗯。歌曲都不错的,谢谢

0

主题

21

帖子

85

积分

新人会员,请认真回复,若恶意回复,直接封号

Rank: 1

积分
85
11#
发表于 2019-2-27 09:37:55 | 只看该作者
精彩的音乐,感谢分享

2

主题

108

帖子

177

积分

乐坛新星

Rank: 2

积分
177
12#
发表于 2019-2-27 09:40:18 | 只看该作者
很好的精选集啊啊

0

主题

58

帖子

111

积分

新人会员,请认真回复,若恶意回复,直接封号

Rank: 1

积分
111
13#
发表于 2019-2-27 11:04:13 | 只看该作者
谢谢楼主分享好音乐!

12

主题

267

帖子

952

积分

职业歌手

Rank: 3Rank: 3

积分
952

社区QQ达人

14#
发表于 2019-2-27 12:44:16 | 只看该作者
怎么完全不懂这个专辑是怎么回事??谢谢分享。

0

主题

348

帖子

334

积分

乐坛新星

Rank: 2

积分
334

社区QQ达人

15#
发表于 2019-2-27 15:17:38 | 只看该作者
感谢分享,谢谢。
您需要登录后才可以回帖 登录 | 注册

本版积分规则

快速回复 大赢家足球即时比分 返回列表
  • 浏阳启动“党的十九大光辉照乡村”文艺村村演 创新十九大精神传播方式 2019-04-18
  • 女性之声——全国妇联 2019-04-18
  • 感触名家笔下的端午文化 吃香粽原来可以这样"文艺" 2019-04-08
  • 从榜单看黑茶“热” 首批中国黑茶类制茶大师公布 2019-03-26
  • 浙江德清:小山村自办十九大精神学习馆 2019-03-26
  • 美国代表历史与现在,中国代表现在与未来。美国产品退出中国市场,几乎等于退出亚洲市场 2019-03-24
  • 这家工厂智能制造有魅力!记者探营创维彩电智能工厂 2019-03-24
  • 端午节怎么吃粽子不发胖?习俗暗藏养生精髓 2019-03-23
  • 【北京龙腾信达车型报价】北京龙腾信达综合店车型价格 2019-03-23
  • 西铁城百年盛典  秉持制表初心,缔造百年传奇 2019-03-13
  • 滴滴公布阶段整改措施 零容忍整治“人车不符” 2019-03-13
  • 失眠-热门标签-华商生活 2019-01-22
  • 2016第十一届中国常州先进制造技术成果展示洽谈会——中国常州网专题 2018-07-19
  • 498| 226| 463| 902| 668| 634| 506| 12| 81| 220|