最近看过此主题的会员

查看: 114|回复: 2
打印 上一主题 下一主题

[欧美] 老虎原抓:Billie Myers《Growing, Pains》1997/分轨FLAC/BD

[复制链接]
 成长值: 530

27

主题

107

帖子

6069

积分

VIP1

Rank: 4

积分
6069
跳转到指定楼层
1#
发表于 2019-4-26 19:33:21 | 只看该作者 |只看大图 回帖奖励 |倒序浏览 |阅读模式

注册会员,获得无损资源下载地址,享受高品质音乐。

您需要 登录 才可以下载或查看,没有帐号?注册

x



专辑英文名: Growing, Pains
歌手: Billie Myers
别名: 比莉麦尔丝
音乐风格: 流行POP
资源格式: FLAC抓
版本: [英国首版]
发行时间: 1997
地区: 英国
语言: 英语

















简介:


Billie Myers是英国著名的摇滚流行音乐歌手和词曲作者,1997年以首发单曲"Kiss The Rain"在流行音乐舞台攻下一席之地。在成为歌手之前Billie Myers是一名护士,在一间酒吧里被音乐制作人Peter Q. Harris发现,与环球唱片签约,之后便凭借"Kiss The Rain"而享誉全球乐届,这首单曲来自她的第一张专辑《Growing, Pains》,这张专辑也同样开高走高行情看涨,获得乐迷实质回响,销售直逼四十万大关,时代杂志还誉为“一张非凡的罕见佳作”,其后展开长达十八个月之久的全球巡回表演。初献声即赢得各方瞩目,乐界把她和同属创作型才女的琼艾玛崔汀、崔西查普曼相提并论。Billie Myers后来发行的多张专辑都取得了不错的成绩。


这张是Billie Myers的第一张个人专辑,主打歌kiss the rain打入英国流行音乐排行榜第四,美国billboard的第十五。


专辑曲目:


   01 - Kiss The Rain
   02 - A Few Words Too Many
   03 - Tell Me
   04 - You Send Me Flying
   05 - Please Don't Shout
   06 - First Time
   07 - Mother, Daughter, Sister, Lover
   08 - The Shark And The Mermaid
   09 - Having Trouble With The Language
   10 - Opposites Attract
   11 - Much Change Too Soon
   12 - Kiss The Rain  (Bonus Track)


游客,如果您要查看本帖隐藏内容请回复



LOG:

Exact Audio Copy V1.3 from 2. September 2016

EAC extraction logfile from 21. April 2019, 7:00

Billie Myers / Growing, Pains

Used drive  : TSSTcorpCDDVDW SE-208GB   Adapter: 1  ID: 1

Read mode               : Secure
Utilize accurate stream : Yes
Defeat audio cache      : No
Make use of C2 pointers : No

Read offset correction                      : 6
Overread into Lead-In and Lead-Out          : No
Fill up missing offset samples with silence : Yes
Delete leading and trailing silent blocks   : No
Null samples used in CRC calculations       : Yes
Used interface                              : Native Win32 interface for Win NT & 2000
Gap handling                                : Not detected, thus appended to previous track

Used output format : Internal WAV Routines
Sample format      : 44.100 Hz; 16 Bit; Stereo


TOC of the extracted CD

     Track |   Start  |  Length  | Start sector | End sector
    ---------------------------------------------------------
        1  |  0:00.00 |  4:30.12 |         0    |    20261   
        2  |  4:30.12 |  4:15.68 |     20262    |    39454   
        3  |  8:46.05 |  5:04.22 |     39455    |    62276   
        4  | 13:50.27 |  3:56.73 |     62277    |    80049   
        5  | 17:47.25 |  3:43.00 |     80050    |    96774   
        6  | 21:30.25 |  3:38.02 |     96775    |   113126   
        7  | 25:08.27 |  3:38.10 |    113127    |   129486   
        8  | 28:46.37 |  3:49.58 |    129487    |   146719   
        9  | 32:36.20 |  3:45.05 |    146720    |   163599   
       10  | 36:21.25 |  3:37.07 |    163600    |   179881   
       11  | 39:58.32 |  3:51.33 |    179882    |   197239   


Track  1

     Filename E:\MUSIC\01 Kiss the Rain.wav

     Peak level 98.8 %
     Extraction speed 1.6 X
     Track quality 100.0 %
     Copy CRC 66C32875
     Accurately ripped (confidence 35)  [57D150A5]  (AR v2)
     Copy OK

Track  2

     Filename E:\MUSIC\02 A Few Words Too Many.wav

     Peak level 100.0 %
     Extraction speed 2.2 X
     Track quality 100.0 %
     Copy CRC 1FC5E41D
     Accurately ripped (confidence 34)  [721FEAF5]  (AR v2)
     Copy OK

Track  3

     Filename E:\MUSIC\03 Tell Me.wav

     Peak level 98.8 %
     Extraction speed 2.4 X
     Track quality 100.0 %
     Copy CRC 0F9687AD
     Accurately ripped (confidence 34)  [170F7F90]  (AR v2)
     Copy OK

Track  4

     Filename E:\MUSIC\04 You Send Me Flying.wav

     Peak level 98.8 %
     Extraction speed 2.6 X
     Track quality 100.0 %
     Copy CRC AE83F399
     Accurately ripped (confidence 34)  [481E7961]  (AR v2)
     Copy OK

Track  5

     Filename E:\MUSIC\05 Please Don't Shout.wav

     Peak level 98.8 %
     Extraction speed 2.7 X
     Track quality 100.0 %
     Copy CRC 239294C0
     Accurately ripped (confidence 34)  [3E59AEA2]  (AR v2)
     Copy OK

Track  6

     Filename E:\MUSIC\06 First Time.wav

     Peak level 98.8 %
     Extraction speed 2.8 X
     Track quality 100.0 %
     Copy CRC 73A0EF4F
     Accurately ripped (confidence 34)  [28BCAF62]  (AR v2)
     Copy OK

Track  7

     Filename E:\MUSIC\07 Mother, Daughter, Sister, Lover.wav

     Peak level 98.8 %
     Extraction speed 2.9 X
     Track quality 99.9 %
     Copy CRC D666AA3A
     Accurately ripped (confidence 33)  [B3A3AFAF]  (AR v2)
     Copy OK

Track  8

     Filename E:\MUSIC\08 The Shark and the Mermaid.wav

     Peak level 100.0 %
     Extraction speed 3.1 X
     Track quality 100.0 %
     Copy CRC 4D299B4C
     Accurately ripped (confidence 33)  [66233F66]  (AR v2)
     Copy OK

Track  9

     Filename E:\MUSIC\09 Having Trouble With the Language.wav

     Peak level 98.8 %
     Extraction speed 3.2 X
     Track quality 99.9 %
     Copy CRC 2A93E134
     Accurately ripped (confidence 32)  [00F9735C]  (AR v2)
     Copy OK

Track 10

     Filename E:\MUSIC\10 Opposites Attract.wav

     Peak level 98.8 %
     Extraction speed 3.3 X
     Track quality 99.9 %
     Copy CRC 5C8860F0
     Accurately ripped (confidence 34)  [D75F1562]  (AR v2)
     Copy OK

Track 11

     Filename E:\MUSIC\11 Much Change Too Soon.wav

     Peak level 98.8 %
     Extraction speed 3.4 X
     Track quality 99.9 %
     Copy CRC F79D05B2
     Accurately ripped (confidence 33)  [C2BC895F]  (AR v2)
     Copy OK


All tracks accurately ripped

No errors occurred

End of status report

---- CUETools DB Plugin V2.1.6

[CTDB TOCID: UfAx03YPLtyZDDAhiy1NbAKb7b4-] found
Submit result: UfAx03YPLtyZDDAhiy1NbAKb7b4- has been confirmed
Track | CTDB Status
  1   | ( 61/241) Accurately ripped, or (174/241) differs in 1200 samples @00:00:25-00:00:26
  2   | (240/241) Accurately ripped
  3   | (240/241) Accurately ripped
  4   | (241/241) Accurately ripped
  5   | (240/241) Accurately ripped
  6   | (240/241) Accurately ripped
  7   | (241/241) Accurately ripped
  8   | (240/241) Accurately ripped
  9   | (239/241) Accurately ripped
10   | (240/241) Accurately ripped
11   | (238/241) Accurately ripped
If you are sure that your rip contains errors, you can use CUETools to repair it.


==== Log checksum AECCB31F3981A75B8294850896891A8B9BC029575CA2FBED35214A7CBF3673A5 ====







评分

参与人数 1CD +240 收起 理由
最终之战 + 240

查看全部评分





老虎原抓:Alyssa Milano 《Locked Inside a Dream》1991/分轨FLAC/BD
老虎原抓:Chaka Khan《Life Is a Dance (The Remix Project)》1989/分...
 成长值: 1335

0

主题

115

帖子

225

积分

VIP2

Rank: 5Rank: 5

积分
225
2#
发表于 2019-4-26 22:18:13 | 只看该作者
感谢楼主分享的好音乐。
 成长值: 710

0

主题

19

帖子

978

积分

VIP2

Rank: 5Rank: 5

积分
978
3#
发表于 2019-4-28 11:00:53 | 只看该作者
楼主真是90年代音乐大全啊
您需要登录后才可以回帖 登录 | 注册

本版积分规则

快速回复 大赢家足球即时比分 返回列表
  • 《宝贝麦西西》 香香 张津涤《宝贝麦西西》 香香 张津涤 2019-05-07
  • 北京市北京福瑞林肯中心4S店【在线咨询】 2019-05-07
  • 哪个不在痛打落水狗呢 2019-05-01
  • 头发-热门标签-华商生活 2019-05-01
  • 中华文明可供全球治理借鉴的思想智慧 2019-04-30
  • 内地生报读香港高校本科人数持续下跌 2019-04-30
  • 重阳节“陪伴,是最长情的告白” 2019-04-25
  • 浏阳启动“党的十九大光辉照乡村”文艺村村演 创新十九大精神传播方式 2019-04-18
  • 女性之声——全国妇联 2019-04-18
  • 感触名家笔下的端午文化 吃香粽原来可以这样"文艺" 2019-04-08
  • 从榜单看黑茶“热” 首批中国黑茶类制茶大师公布 2019-03-26
  • 浙江德清:小山村自办十九大精神学习馆 2019-03-26
  • 美国代表历史与现在,中国代表现在与未来。美国产品退出中国市场,几乎等于退出亚洲市场 2019-03-24
  • 这家工厂智能制造有魅力!记者探营创维彩电智能工厂 2019-03-24
  • 端午节怎么吃粽子不发胖?习俗暗藏养生精髓 2019-03-23
  • 65| 275| 399| 323| 885| 564| 195| 815| 679| 890|