最近看过此主题的会员

查看: 130|回复: 3
打印 上一主题 下一主题

[欧美] zvbmxf原抓:德死亡金属 Deserted Fear《Drowned By Humanity》2019/FLAC/BD

[复制链接]
 成长值: 32370

1万

主题

2万

帖子

76万

积分

音乐掌门人

Rank: 20Rank: 20Rank: 20Rank: 20Rank: 20

积分
762795

名人勋章社区QQ达人分享勋章精华帖达人灌水勋章

跳转到指定楼层
1#
发表于 2019-4-28 09:17:40 | 只看该作者 |只看大图 回帖奖励 |倒序浏览 |阅读模式

注册会员,获得无损资源下载地址,享受高品质音乐。

您需要 登录 才可以下载或查看,没有帐号?注册

x



Deserted Fear
Country of origin:Germany
Location:Eisenberg, Thuringia
Status:Active
Formed in:2007
Genre:Death Metal
Lyrical themes:Death, War, Occultism
Current label:Century Media Records
Years active:2007-present
========================


01.Intro
02.All Will Fall
03.An Everlasting Dawn
04.The Final Chapter
05.Reflect The Storm
06.Across The Open Sea
07.Welcome To Reality
08.Stench Of Misery
09.A Breathing Soul
10.Sins From The Past
11.Scars Of Wisdom
12.Die In Vain (Bonus Track)
13.Tear Of My Throne (Bonus Track) Re-recorded


================================
百度下载(金属摇滚基地)
游客,如果您要查看本帖隐藏内容请回复





老虎原抓:松岡英明 《VISIONS OF BOYS》1987/分轨FLAC/BD
原抓:脑浊《仅限二环以内》2009/WAV_整轨/度盘

本人发布的资源,有密码的话都是:大赢家足球即时比分 www.1re4.com.cn
关于链接失效的说明(度盘好友分享的说明)
//www.1re4.com.cn/thread-117499-1-1.html     
紧急通告:115,快传等网盘取消了分享功能礼包码链接全部失效
//www.1re4.com.cn/thread-122759-1-1.html
 成长值: 32370

1万

主题

2万

帖子

76万

积分

音乐掌门人

Rank: 20Rank: 20Rank: 20Rank: 20Rank: 20

积分
762795

名人勋章社区QQ达人分享勋章精华帖达人灌水勋章

2#
发表于 2019-4-28 09:23:32 | 只看该作者



















本人发布的资源,有密码的话都是:大赢家足球即时比分 www.1re4.com.cn
关于链接失效的说明(度盘好友分享的说明)
//www.1re4.com.cn/thread-117499-1-1.html     
紧急通告:115,快传等网盘取消了分享功能礼包码链接全部失效
//www.1re4.com.cn/thread-122759-1-1.html
 成长值: 32370

1万

主题

2万

帖子

76万

积分

音乐掌门人

Rank: 20Rank: 20Rank: 20Rank: 20Rank: 20

积分
762795

名人勋章社区QQ达人分享勋章精华帖达人灌水勋章

3#
发表于 2019-4-28 09:24:06 | 只看该作者
Exact Audio Copy V1.3 from 2. September 2016

Отчёт EAC об извлечении, выполненном 23. февраля 2019, 13:04

Deserted Fear / Drowned By Humanity

Дисковод: PIONEER DVD-RW  DVR-S21   Adapter: 1  ID: 0

Режим чтения                 : Достоверность
Использование точного потока : Да
Отключение кэша аудио        : Да
Использование указателей C2  : Нет

Коррекция смещения при чтении                     : 6
Способность читать области Lead-in и Lead-out     : Нет
Заполнение пропущенных сэмплов тишиной            : Да
Удаление блоков с тишиной в начале и конце        : Нет
При вычислениях CRC использовались нулевые сэмплы : Да
Интерфейс                                         : Встроенный Win32-интерфейс для Win NT/2000

Выходной формат          : Пользовательский кодировщик
Выбранный битрейт        : 1024 kBit/s
Качество                 : Высокий
Добавление ID3-тега      : Нет
Утилита сжатия           : C:\Program Files (x86)\Exact Audio Copy\FLAC\FLAC.EXE
Дополнительные параметры : -6 -V -T "ARTIST=%artist%" -T "TITLE=%title%" -T "ALBUM=%albumtitle%" -T "DATE=%year%" -T "TRACKNUMBER=%tracknr%" -T "GENRE=%genre%" -T "COMMENT=%comment%" -T "BAND=%albuminterpret%" -T "ALBUMARTIST=%albuminterpret%" -T "COMPOSER=%composer%" %haslyrics%--tag-from-file=LYRICS="%lyricsfile%"%haslyrics% -T "DISCNUMBER=%cdnumber%" -T "TOTALDISCS=%totalcds%" -T "TOTALTRACKS=%numtracks%" %hascover%--picture="%coverfile%"%hascover% %source% -o %dest%


TOC извлечённого CD

     Трек |   Старт  | Длительность | Начальный сектор | Конечный сектор
    ---------------------------------------------------------------------
       1  |  0:00.00 |    1:41.50   |           0      |       7624      
       2  |  1:41.50 |    3:47.51   |        7625      |      24700      
       3  |  5:29.26 |    3:33.23   |       24701      |      40698      
       4  |  9:02.49 |    4:07.69   |       40699      |      59292      
       5  | 13:10.43 |    3:48.26   |       59293      |      76418      
       6  | 16:58.69 |    0:27.03   |       76419      |      78446      
       7  | 17:25.72 |    4:18.20   |       78447      |      97816      
       8  | 21:44.17 |    3:57.29   |       97817      |     115620      
       9  | 25:41.46 |    4:20.24   |      115621      |     135144      
      10  | 30:01.70 |    3:18.69   |      135145      |     150063      
      11  | 33:20.64 |    5:15.64   |      150064      |     173752      
      12  | 38:36.53 |    3:51.59   |      173753      |     191136      
      13  | 42:28.37 |    4:59.65   |      191137      |     213626      


Характеристики диапазона извлечения и сообщения об ошибках

Выбранный диапазон

     Имя файла D:\EAC\zvbmxf\Deserted Fear-2019-Drowned By Humanity\Deserted Fear - Drowned By Humanity.wav

     Пиковый уровень 99.7 %
     Скорость извлечения 6.8 X
     Качество диапазона 100.0 %
     CRC теста DE394976
     CRC копии DE394976
     Копирование... OK

Ошибок не произошло


AccurateRip: сводка

Трек  1  : извлечено точно (доверие 1)  [34A03A45]  (AR v2)
Трек  2  : извлечено точно (доверие 1)  [E78DC28B]  (AR v2)
Трек  3  : извлечено точно (доверие 1)  [7FD299DB]  (AR v2)
Трек  4  : извлечено точно (доверие 1)  [DB030CA9]  (AR v2)
Трек  5  : извлечено точно (доверие 1)  [11755367]  (AR v2)
Трек  6  : извлечено точно (доверие 1)  [0AA17CCA]  (AR v2)
Трек  7  : извлечено точно (доверие 1)  [02B7F6E9]  (AR v2)
Трек  8  : извлечено точно (доверие 1)  [667C4E5E]  (AR v2)
Трек  9  : извлечено точно (доверие 1)  [99938A42]  (AR v2)
Трек 10  : извлечено точно (доверие 1)  [0BC6D686]  (AR v2)
Трек 11  : извлечено точно (доверие 1)  [9F4470E4]  (AR v2)
Трек 12  : извлечено точно (доверие 1)  [F149D5A9]  (AR v2)
Трек 13  : извлечено точно (доверие 1)  [F8C5DE94]  (AR v2)

Все треки извлечены точно

Конец отчёта

---- CUETools DB Plugin V2.1.6

[CTDB TOCID: iCcn3KLD7.GddD876P_wF_N5tkA-] found
Submit result: iCcn3KLD7.GddD876P_wF_N5tkA- has been confirmed
Track | CTDB Status
  1   | (14/14) Accurately ripped
  2   | (14/14) Accurately ripped
  3   | (14/14) Accurately ripped
  4   | (14/14) Accurately ripped
  5   | (14/14) Accurately ripped
  6   | (14/14) Accurately ripped
  7   | (14/14) Accurately ripped
  8   | (14/14) Accurately ripped
  9   | (14/14) Accurately ripped
10   | (14/14) Accurately ripped
11   | (14/14) Accurately ripped
12   | (14/14) Accurately ripped
13   | (14/14) Accurately ripped


==== Контрольная сумма отчёта 9F5ACB8219E15904D4134FC63C0CC3C496CC43853CBD70D29D38F02D4107DAF3 ====



本人发布的资源,有密码的话都是:大赢家足球即时比分 www.1re4.com.cn
关于链接失效的说明(度盘好友分享的说明)
//www.1re4.com.cn/thread-117499-1-1.html     
紧急通告:115,快传等网盘取消了分享功能礼包码链接全部失效
//www.1re4.com.cn/thread-122759-1-1.html

95

主题

456

帖子

4万

积分

天王巨星

Rank: 7Rank: 7Rank: 7

积分
43151
QQ
4#
发表于 2019-5-1 21:30:04 | 只看该作者
这个团的录音不错
您需要登录后才可以回帖 登录 | 注册

本版积分规则

快速回复 大赢家足球即时比分 返回列表
  • 《宝贝麦西西》 香香 张津涤《宝贝麦西西》 香香 张津涤 2019-05-07
  • 北京市北京福瑞林肯中心4S店【在线咨询】 2019-05-07
  • 哪个不在痛打落水狗呢 2019-05-01
  • 头发-热门标签-华商生活 2019-05-01
  • 中华文明可供全球治理借鉴的思想智慧 2019-04-30
  • 内地生报读香港高校本科人数持续下跌 2019-04-30
  • 重阳节“陪伴,是最长情的告白” 2019-04-25
  • 浏阳启动“党的十九大光辉照乡村”文艺村村演 创新十九大精神传播方式 2019-04-18
  • 女性之声——全国妇联 2019-04-18
  • 感触名家笔下的端午文化 吃香粽原来可以这样"文艺" 2019-04-08
  • 从榜单看黑茶“热” 首批中国黑茶类制茶大师公布 2019-03-26
  • 浙江德清:小山村自办十九大精神学习馆 2019-03-26
  • 美国代表历史与现在,中国代表现在与未来。美国产品退出中国市场,几乎等于退出亚洲市场 2019-03-24
  • 这家工厂智能制造有魅力!记者探营创维彩电智能工厂 2019-03-24
  • 端午节怎么吃粽子不发胖?习俗暗藏养生精髓 2019-03-23
  • 198| 247| 291| 531| 468| 945| 526| 65| 647| 879|