最近看过此主题的会员

查看: 136|回复: 7
打印 上一主题 下一主题

[欧美摇滚] 澳大利亚死亡金属:Horrisonous《A Culinary Cacophony》2019/FLAC/BD

[复制链接]
 成长值: 32415

1万

主题

2万

帖子

76万

积分

音乐掌门人

Rank: 20Rank: 20Rank: 20Rank: 20Rank: 20

积分
762885

名人勋章社区QQ达人分享勋章精华帖达人灌水勋章

跳转到指定楼层
1#
发表于 2019-4-30 15:53:04 | 只看该作者 |只看大图 回帖奖励 |倒序浏览 |阅读模式

注册会员,获得无损资源下载地址,享受高品质音乐。

您需要 登录 才可以下载或查看,没有帐号?注册

x



Horrisonous

Country of origin:Australia

Location:Sydney, New South Wales

Status:Active

Formed in:2014

Genre:Death Metal

Lyrical themes:Plague, Disease

Current label:Memento Mori

Years active:2014-present


===================



01.Kuru Worship

02.The Gavage

03.Perpetual Mincing

04.A Tale Of Matriphagy

05.Flesh Presented For Orgasmic Torment

06.Crispy Chunks Of The Obese

07.Nourishment Through Excrement

08.The Number Of The Feast

==========================

百度下载(金属摇滚基地)

游客,如果您要查看本帖隐藏内容请回复





美国朋克:Good Charlotte《Generation Rx》2018/FLAC/BD
意大利哥特旋死:Lahmia《Resilience》2019/FLAC/BD

本人发布的资源,有密码的话都是:大赢家足球即时比分 www.1re4.com.cn
关于链接失效的说明(度盘好友分享的说明)
//www.1re4.com.cn/thread-117499-1-1.html     
紧急通告:115,快传等网盘取消了分享功能礼包码链接全部失效
//www.1re4.com.cn/thread-122759-1-1.html
 成长值: 32415

1万

主题

2万

帖子

76万

积分

音乐掌门人

Rank: 20Rank: 20Rank: 20Rank: 20Rank: 20

积分
762885

名人勋章社区QQ达人分享勋章精华帖达人灌水勋章

2#
发表于 2019-4-30 16:01:13 | 只看该作者
















本人发布的资源,有密码的话都是:大赢家足球即时比分 www.1re4.com.cn
关于链接失效的说明(度盘好友分享的说明)
//www.1re4.com.cn/thread-117499-1-1.html     
紧急通告:115,快传等网盘取消了分享功能礼包码链接全部失效
//www.1re4.com.cn/thread-122759-1-1.html
 成长值: 32415

1万

主题

2万

帖子

76万

积分

音乐掌门人

Rank: 20Rank: 20Rank: 20Rank: 20Rank: 20

积分
762885

名人勋章社区QQ达人分享勋章精华帖达人灌水勋章

3#
发表于 2019-4-30 16:06:20 | 只看该作者
Exact Audio Copy V1.3 from 2. September 2016

Отчёт EAC об извлечении, выполненном 1. марта 2019, 20:01

Horrisonous  / A Culinary Cacophony

Дисковод: PIONEER DVD-RW  DVR-S21   Adapter: 1  ID: 0

Режим чтения                 : Достоверность
Использование точного потока : Да
Отключение кэша аудио        : Да
Использование указателей C2  : Нет

Коррекция смещения при чтении                     : 6
Способность читать области Lead-in и Lead-out     : Нет
Заполнение пропущенных сэмплов тишиной            : Да
Удаление блоков с тишиной в начале и конце        : Нет
При вычислениях CRC использовались нулевые сэмплы : Да
Интерфейс                                         : Встроенный Win32-интерфейс для Win NT/2000

Выходной формат          : Пользовательский кодировщик
Выбранный битрейт        : 1024 kBit/s
Качество                 : Высокий
Добавление ID3-тега      : Нет
Утилита сжатия           : C:\Program Files (x86)\Exact Audio Copy\FLAC\FLAC.EXE
Дополнительные параметры : -6 -V -T "ARTIST=%artist%" -T "TITLE=%title%" -T "ALBUM=%albumtitle%" -T "DATE=%year%" -T "TRACKNUMBER=%tracknr%" -T "GENRE=%genre%" -T "COMMENT=%comment%" -T "BAND=%albuminterpret%" -T "ALBUMARTIST=%albuminterpret%" -T "COMPOSER=%composer%" %haslyrics%--tag-from-file=LYRICS="%lyricsfile%"%haslyrics% -T "DISCNUMBER=%cdnumber%" -T "TOTALDISCS=%totalcds%" -T "TOTALTRACKS=%numtracks%" %hascover%--picture="%coverfile%"%hascover% %source% -o %dest%


TOC извлечённого CD

     Трек |   Старт  | Длительность | Начальный сектор | Конечный сектор
    ---------------------------------------------------------------------
       1  |  0:00.00 |    4:54.67   |           0      |      22116      
       2  |  4:54.67 |    3:33.61   |       22117      |      38152      
       3  |  8:28.53 |    5:53.42   |       38153      |      64669      
       4  | 14:22.20 |    5:25.01   |       64670      |      89045      
       5  | 19:47.21 |    5:48.24   |       89046      |     115169      
       6  | 25:35.45 |    4:04.50   |      115170      |     133519      
       7  | 29:40.20 |    4:15.33   |      133520      |     152677      
       8  | 33:55.53 |    7:58.40   |      152678      |     188567      


Характеристики диапазона извлечения и сообщения об ошибках

Выбранный диапазон

     Имя файла D:\EAC\zvbmxf\Horrisonous-2019-A Culinary Cacophony\Horrisonous  - A Culinary Cacophony.wav

     Пиковый уровень 89.9 %
     Скорость извлечения 6.5 X
     Качество диапазона 99.9 %
     CRC теста E1623AD3
     CRC копии E1623AD3
     Копирование... OK

Ошибок не произошло


AccurateRip: сводка

Трек  1  отсутствует в базе данных
Трек  2  отсутствует в базе данных
Трек  3  отсутствует в базе данных
Трек  4  отсутствует в базе данных
Трек  5  отсутствует в базе данных
Трек  6  отсутствует в базе данных
Трек  7  отсутствует в базе данных
Трек  8  отсутствует в базе данных

Ни одного трека нет в базе AccurateRip

Конец отчёта

---- CUETools DB Plugin V2.1.6

[CTDB TOCID: m0yv7gU8fVXw5FAjVYLlHTkwP6s-] disk not present in database
Submit result: m0yv7gU8fVXw5FAjVYLlHTkwP6s- has been uploaded


==== Контрольная сумма отчёта 08F5CB03FA4C9FFA20C631512F97C3CDA9713B422FE56B4170E14321786A53A7 ====



本人发布的资源,有密码的话都是:大赢家足球即时比分 www.1re4.com.cn
关于链接失效的说明(度盘好友分享的说明)
//www.1re4.com.cn/thread-117499-1-1.html     
紧急通告:115,快传等网盘取消了分享功能礼包码链接全部失效
//www.1re4.com.cn/thread-122759-1-1.html

0

主题

155

帖子

259

积分

乐坛新星

Rank: 2

积分
259
4#
发表于 2019-5-1 09:01:50 | 只看该作者
谢谢楼主分享,下载来听听。

0

主题

1101

帖子

2749

积分

当红偶像

Rank: 4

积分
2749
5#
发表于 2019-5-3 09:36:01 | 只看该作者
封面有点意思,不知听着怎么样

29

主题

611

帖子

4959

积分

人气天王

Rank: 5Rank: 5

积分
4959

社区QQ达人

6#
发表于 2019-5-5 11:35:49 | 只看该作者
这封面血腥啊,不知道音乐怎么样

0

主题

1171

帖子

1049

积分

职业歌手

Rank: 3Rank: 3

积分
1049

社区QQ达人

QQ
7#
发表于 7 天前 | 只看该作者
封面好有漫画气质,感谢分享

0

主题

244

帖子

336

积分

乐坛新星

Rank: 2

积分
336
8#
发表于 6 天前 | 只看该作者
谢谢楼主分享。
您需要登录后才可以回帖 登录 | 注册

本版积分规则

快速回复 大赢家足球即时比分 返回列表
  • 《宝贝麦西西》 香香 张津涤《宝贝麦西西》 香香 张津涤 2019-05-07
  • 北京市北京福瑞林肯中心4S店【在线咨询】 2019-05-07
  • 哪个不在痛打落水狗呢 2019-05-01
  • 头发-热门标签-华商生活 2019-05-01
  • 中华文明可供全球治理借鉴的思想智慧 2019-04-30
  • 内地生报读香港高校本科人数持续下跌 2019-04-30
  • 重阳节“陪伴,是最长情的告白” 2019-04-25
  • 浏阳启动“党的十九大光辉照乡村”文艺村村演 创新十九大精神传播方式 2019-04-18
  • 女性之声——全国妇联 2019-04-18
  • 感触名家笔下的端午文化 吃香粽原来可以这样"文艺" 2019-04-08
  • 从榜单看黑茶“热” 首批中国黑茶类制茶大师公布 2019-03-26
  • 浙江德清:小山村自办十九大精神学习馆 2019-03-26
  • 美国代表历史与现在,中国代表现在与未来。美国产品退出中国市场,几乎等于退出亚洲市场 2019-03-24
  • 这家工厂智能制造有魅力!记者探营创维彩电智能工厂 2019-03-24
  • 端午节怎么吃粽子不发胖?习俗暗藏养生精髓 2019-03-23
  • 791| 193| 738| 247| 881| 542| 934| 342| 848| 557|